Forums > Sharing The Music - Announce > ROCK IN RIO 33th ANNIVERSARY EDITION (4:3 PAL - 1080p - 60fps)

forum rss feed
Author

Raffy user not visiting Queenzone.com
Raffy
Bohemian: 459 posts
add to buddy list send PM

Posted: 11 Jan 18, 21:43 Edit this post Reply to this post Reply with Quote

11 JANUARY 1985 - 11 JANUARY 2018 - ROCK IN RIO 33th ANNIVERSARY EDITION

Hello everybody,
as previously posted here:
http://queenzone.com/forums/1498495/rock-in-rio-first-night-remastered-raffy-rock-2018-edition.aspx
this is my second attempt to remaster this gig, this time you'll have a single direct download link to the file and quality is the best I could possibly get, info and screenshots in the following post. Enjoy while you can here (don't know when the link will expire) and feel free to make a torrent of it of course.

HAPPY ROCK IN RIO 33th ANNIVERSARY ;)

DOWNLOAD LINK -> https://mab.to/HkcBE8kIc

SETLIST AND TIMECODE:
Machines (tape) 00:00
Tear It Up 01:28
Tie Your Mother Down 03:19
Under Pressure 07:22
Day-Oh 10:47
Somebody To Love 11:55
Killer Queen 16:12
Seven Seas Of Rhye 18:40
Keep Yourself Alive 20:00
Liar 22:42
Impromptu 25:21
It's A Hard Life 27:23
Dragon Attack 32:40
Now I'm Here 36:51
Is This The World We Created? 42:28
Love Of My Life 46:00
Guitar solo 51:13
Brighton Rock (ending) 57:28
Another One Bites The Dust 01:00:28
Mustapha (intro) 01:04:47
Hammer To Fall 01:05:19
Crazy Little Thing Called Love 01:10:27
Bohemian Rhapsody 01:16:36
Radio Ga Ga 01:22:10
I Want To Break Free 01:30:18
Jailhouse Rock 01:33:43
We Will Rock You 01:37:32
We Are The Champions 01:40:55
God Save The Queen 01:45:00

FILE INFO:
Format : MPEG-4
Format profile : Base Media / Version 2
Codec ID : mp42 (mp42/mp41)
File size : 15.7 GiB
Duration : 1 h 50 min
Overall bit rate mode : Variable
Overall bit rate : 20.3 Mb/s
Encoded date : UTC 2018-01-11 18:18:48
Tagged date : UTC 2018-01-11 18:32:21
©TIM : 00:00:00:00
©TSC : 60
©TSZ : 1

Video
ID : 1
Format : AVC
Format/Info : Advanced Video Codec
Format profile : High@L4.2
Format settings : CABAC / 3 Ref Frames
Format settings, CABAC : Yes
Format settings, RefFrames : 3 frames
Format settings, GOP : M=3, N=60
Codec ID : avc1
Codec ID/Info : Advanced Video Coding
Duration : 1 h 50 min
Bit rate mode : Variable
Bit rate : 20.0 Mb/s
Maximum bit rate : 25.0 Mb/s
Width : 1 440 pixels
Height : 1 080 pixels
Display aspect ratio : 4:3
Frame rate mode : Constant
Frame rate : 60.000 FPS
Standard : PAL
Color space : YUV
Chroma subsampling : 4:2:0
Bit depth : 8 bits
Scan type : Progressive
Bits/(Pixel*Frame) : 0.214
Stream size : 15.4 GiB (98%)
Language : English
Encoded date : UTC 2018-01-11 18:18:48
Tagged date : UTC 2018-01-11 18:18:48
Color range : Limited
Color primaries : BT.709
Transfer characteristics : BT.709
Matrix coefficients : BT.709

Audio
ID : 2
Format : AAC
Format/Info : Advanced Audio Codec
Format profile : LC
Codec ID : mp4a-40-2
Duration : 1 h 50 min
Source duration : 1 h 50 min
Bit rate mode : Variable
Bit rate : 317 kb/s
Maximum bit rate : 365 kb/s
Channel(s) : 2 channels
Channel positions : Front: L R
Sampling rate : 48.0 kHz
Frame rate : 46.875 FPS (1024 SPF)
Compression mode : Lossy
Stream size : 251 MiB (2%)
Source stream size : 251 MiB (2%)
Language : English
Encoded date : UTC 2018-01-11 18:18:48
Tagged date : UTC 2018-01-11 18:18:48

Attachment: 2018111459136639.jpg 5 MB
This has been downloaded 159 time(s).


dave76 user not visiting Queenzone.com
dave76
Bohemian: 725 posts
add to buddy list send PM

Posted: 12 Jan 18, 00:30 Edit this post Reply to this post Reply with Quote

Thank you so much for your hard effort. I will curious to see what you made of it.

tcc user not visiting Queenzone.com

Royalty: 1625 posts
add to buddy list send PM

Posted: 12 Jan 18, 06:07 Edit this post Reply to this post Reply with Quote

Thanks for this.

Here is a torrent for those who need it.

You will need a bittorrent client to download the music. For additional information, view the Bittorrent FAQ.

Please leave your window open when you have finished downloading so that other Queen fans can download.

This file will be customized for you when you download

Attachment: 2018112484207074.torrent 78 KB

View Stats on this torrent


This has been downloaded 135 time(s).


pmatsynot user not visiting Queenzone.com

Bohemian: 301 posts
add to buddy list send PM

Posted: 12 Jan 18, 12:27 Edit this post Reply to this post Reply with Quote

Thanks to the uploader and TCC for the torrent

jerome.wuzz user not visiting Queenzone.com

Champion: 79 posts
add to buddy list send PM

Posted: 12 Jan 18, 20:53 Edit this post Reply to this post Reply with Quote

Thanks a lot, looking forward to watching it :-)

Makka user not visiting Queenzone.com
Makka
Bohemian: 292 posts
add to buddy list send PM

Posted: 14 Jan 18, 08:20 Edit this post Reply to this post Reply with Quote

Thanks guys. Is this much different to the original Rock In Rio release from years ago?

ataqueen user not visiting Queenzone.com

Rocker: 17 posts
add to buddy list send PM

Posted: 17 Jan 18, 07:14 Edit this post Reply to this post Reply with Quote

thank you


Barry Durex user not visiting Queenzone.com

Deity: 2002 posts
add to buddy list send PM

Posted: 17 Jan 18, 08:50 Edit this post Reply to this post Reply with Quote

How is 60 FPS Pal and why is 1080p 4:3?

aristide1 user not visiting Queenzone.com

Bohemian: 327 posts
add to buddy list send PM

Posted: 17 Jan 18, 16:10 Edit this post Reply to this post Reply with Quote

How about a sample? The 17G file, the at least controversial format and the lack of reviews beg for it.

freddies bell end user not visiting Queenzone.com

Champion: 61 posts
add to buddy list send PM

Posted: 17 Jan 18, 23:11 Edit this post Reply to this post Reply with Quote

Brazil is a PAL-M country which means 525 lines Version of PAL

QSMJohn user not visiting Queenzone.com

Bohemian: 116 posts
add to buddy list send PM

Posted: 19 Jan 18, 19:45 Edit this post Reply to this post Reply with Quote

Thank you :)

pittrek user not visiting Queenzone.com
pittrek
Deity: 10324 posts
add to buddy list send PM

Posted: 27 Jan 18, 15:43 Edit this post Reply to this post Reply with Quote

OK I hate to be "that guy", but WHY 1080p? Why 60fps? I couldn't get past the first 20 minutes, it's practically unwatchable if you're sitting close to your screen.

jjbluecaps user not visiting Queenzone.com
jjbluecaps
Champion: 53 posts
add to buddy list send PM

Posted: 27 Jan 18, 21:10 Edit this post Reply to this post Reply with Quote

No, Brazil was PAL-M, but only as a name (nothing to do with the real "PAL"), it was created by the military (we lived under dictatorship) to differentiate ourselves from the rest of the world, in an attempt to create a color system of our own.
But it was very close to NTSC (720x480 and 29,97 interlaced frames), the only different thing was the type of color.
Today, we use the standard NTSC.